Золушка Cinderella 2015 скачать торрент

Уважаемый гость, на данной странице Вам доступен материал по теме: Золушка Cinderella 2015 скачать торрент. Скачивание возможно на компьютер и телефон через торрент, а также сервер загрузок по ссылке ниже. Рекомендуем также другие статьи из категории «Торренты».

Золушка Cinderella 2015 скачать торрент.rar
Закачек 1110
Средняя скорость 3458 Kb/s

Золушка Cinderella 2015 скачать торрент

Disney решила не отказываться от удачной традиции и продолжит выпускать полнометражные кино-версии своих знаменитых мультфильмов. На сей раз в фокусе кинобоссов оказалась история слоненка Дамбо. Адаптировать мультгероев под Большой Экран поручено Тиму Бертону .

Отец молодой девушки по имени Элла, овдовев, женится во второй раз, и вскоре Элла оказывается один на один с жадными и завистливыми новыми родственницами — мачехой Леди Тремэйн и ее дочерьми — Анастасией и Дризеллой. Из хозяйки дома она превращается в служанку, вечно испачканную золой, за что и получает от своих сварливых сводных сестриц прозвище — Золушка. Несмотря на злоключения, выпавшие на ее долю, Золушка не отчаивается, ведь даже в самые тяжелые моменты находится что-то, что помогает ей думать о хорошем: например, случайная встреча на лесной тропинке с прекрасным юношей. Элла даже не предполагает, что встретилась с самим принцем, и что вскоре Фея-крестная навсегда поменяет её жизнь к лучшему.

Золушка (2015) (Cinderella)

Компания Disney начинает кастинг для своего нового проекта. Под эгидой Лассе Халльстрёма планируется снять экранизацию «Щелкунчик и четыре королевства» Эрнста Гофмана . Главная роль отдана Маккензи Фой .

Компания Disney продолжает «перерабатывать» свои культовые мультфильмы. На сей раз в фокус внимания кинобоссов попал «Аладдин» , увидевший свет в 1992г. Студия уже объявила о начале работ над игровой картиной, которая, по сути, станет приквелом оригинального мультфильма.

6100 Кбит/сек
Аудио 1: AC3 5.1, 384 Кбит/сек [Английский — оригинал]
Аудио 2: AC3 5.1, 448 Кбит/сек [Русский — дублированный]
Видео: Идентификатор : 224 (0xE0) Формат : MPEG Video Версия формата : Version 2 Профиль формата : Main@Main Параметр BVOP формата : Да Параметр матрицы формата : Выборочная Параметр GOP формата : Variable Продолжительность : 20 м. Вид битрейта : Переменный Битрейт : 6129 Кбит/сек Максимальный битрейт : 9800 Кбит/сек Ширина : 720 пикселей Высота : 480 пикселей Соотношение сторон : 16:9 Частота кадров : 23,976 кадра/сек Стандарт вещания : Component Цветовое пространство : YUV Субдискретизация насыщенности : 4:2:0 Битовая глубина : 8 бит Тип развёртки : Прогрессивная Порядок развёртки : 2:3 Pulldown Метод сжатия : С потерями Бит/(Пиксели*Кадры) : 0.740 Временной код первого кадра : 01:19:32;29 Оригинал временного кода : Group of pictures header Размер потока : 883 Мбайт (86%) Основные цвета : BT.601 NTSC Характеристики трансфера : BT.601 Коэффициенты матрицы : BT.601
Аудио #1: Идентификатор : 189 (0xBD)-128 (0x80) Формат : AC-3 Формат/Информация : Audio Coding 3 Расширение режима : CM (complete main) Параметр Endianness формата : Big Режим смешивания : DVD-Video Продолжительность : 20 м. Вид битрейта : Постоянный Битрейт : 384 Кбит/сек Каналы : 6 каналов Расположение каналов : Front: L C R, Side: L R, LFE Частота : 48,0 КГц Битовая глубина : 16 бит Метод сжатия : С потерями Задержка видео : -694 мс. Размер потока : 55,4 Мбайт (5%)
Аудио #2: Идентификатор : 189 (0xBD)-129 (0x81) Формат : AC-3 Формат/Информация : Audio Coding 3 Расширение режима : CM (complete main) Параметр Endianness формата : Big Режим смешивания : DVD-Video Продолжительность : 20 м. Вид битрейта : Постоянный Битрейт : 448 Кбит/сек Каналы : 6 каналов Расположение каналов : Front: L C R, Side: L R, LFE Частота : 48,0 КГц Битовая глубина : 16 бит Метод сжатия : С потерями Задержка видео : -694 мс. Размер потока : 64,6 Мбайт (6%)

2064 kbps avg, 0.39 bit/pixel
Аудио #1: 48 kHz, AC3 Dolby Digital, 3/2 (L,C,R,l,r) + LFE ch,

Золушка Cinderella 2015 скачать торрент

5200 Кбит/сек
Аудио 1: AC3 5.1, 384 Кбит/сек [Английский — оригинал]
Аудио 2: AC3 5.1, 448 Кбит/сек [Русский — дублированный]
Видео: Идентификатор : 224 (0xE0) Формат : MPEG Video Версия формата : Version 2 Профиль формата : Main@Main Параметр BVOP формата : Да Параметр матрицы формата : Выборочная Параметр GOP формата : Variable Продолжительность : 22 м. Вид битрейта : Переменный Битрейт : 5273 Кбит/сек Максимальный битрейт : 8176 Кбит/сек Ширина : 720 пикселей Высота : 480 пикселей Соотношение сторон : 16:9 Частота кадров : 23,976 кадра/сек Стандарт вещания : NTSC Цветовое пространство : YUV Субдискретизация насыщенности : 4:2:0 Битовая глубина : 8 бит Тип развёртки : Прогрессивная Порядок развёртки : 2:3 Pulldown Метод сжатия : С потерями Бит/(Пиксели*Кадры) : 0.636 Временной код первого кадра : 00:48:02:28 Оригинал временного кода : Group of pictures header GOP, открыто/закрыто : Открыто Размер потока : 867 Мбайт (85%)
Аудио #1: Идентификатор : 189 (0xBD)-128 (0x80) Формат : AC-3 Формат/Информация : Audio Coding 3 Расширение режима : CM (complete main) Параметр Endianness формата : Big Режим смешивания : DVD-Video Продолжительность : 22 м. Вид битрейта : Постоянный Битрейт : 384 Кбит/сек Каналы : 6 каналов Расположение каналов : Front: L C R, Side: L R, LFE Частота : 48,0 КГц Битовая глубина : 16 бит Метод сжатия : С потерями Задержка видео : -475 мс. Размер потока : 63,1 Мбайт (6%)
Аудио #2: Идентификатор : 189 (0xBD)-129 (0x81) Формат : AC-3 Формат/Информация : Audio Coding 3 Расширение режима : CM (complete main) Параметр Endianness формата : Big Режим смешивания : DVD-Video Продолжительность : 22 м. Вид битрейта : Постоянный Битрейт : 448 Кбит/сек Каналы : 6 каналов Расположение каналов : Front: L C R, Side: L R, LFE Частота : 48,0 КГц Битовая глубина : 16 бит Метод сжатия : С потерями Задержка видео : -443 мс. Размер потока : 73,6 Мбайт (7%)

6653 Kbps, 0.404 bits/pixel
Звук: Audio #1: Russian, 48.0 KHz, AC3, 6 ch, 640 Kbps — AC3 5.1 @ 640 kbps — DUB, Blu-ray NOR Audio #2: Ukrainian, 48.0 KHz, AC3, 6 ch, 384 Kbps — AC3 5.1 @ 384 kbps — DUB, iTunes Audio #3: English, 48.0 KHz, DTS, 6 ch, 1510 Kbps — DTS 5.1 @ 1536 kbps Audio #4: English, 48.0 KHz, AC3, 2 ch, 320 Kbps — AC3 2.0 @ 320 kbps — Deive
Субтитры: Russian (iTunes), Ukrainian (iTunes), English (iTunes)

Статьи по теме