Земля Будущего 2015 скачать торрент

Уважаемый гость, на данной странице Вам доступен материал по теме: Земля Будущего 2015 скачать торрент. Скачивание возможно на компьютер и телефон через торрент, а также сервер загрузок по ссылке ниже. Рекомендуем также другие статьи из категории «Торренты».

Земля Будущего 2015 скачать торрент.rar
Закачек 2234
Средняя скорость 2615 Kb/s

Земля Будущего 2015 скачать торрент

14.2 Mbps, 0.353 bits/pixel Аудио: Russian, 48.0 KHz, AC3, 6 ch, 640 Kbps — AC3 5.1 @ 640 kbps — DUB, Blu-ray Субтитры: Russian (Forced, iTunes), Russian (iTunes), English, English (SDH)

6883 Kbps, 0.385 bits/pixel Аудио: Russian, 48.0 KHz, AC3, 6 ch, 640 Kbps — AC3 5.1 @ 640 kbps — DUB, Blu-ray Субтитры: Russian (Forced, iTunes), Russian (iTunes), English, English (SDH)

Скачать фильм Земля будущего через торрент в хорошем качестве бесплатно

6167 kbps avg, 0.345 bit/pixel Аудио: 48 kHz/16-bit, AC3 Dolby Digital, 3/2 (L,C,R,l,r) + LFE ch,

640 kbps avg | RUS Субтитры: Русские (форсированные, полные), Английские (форсированные, полные, SDH, SDH-Colored)

3800 Кбит/сек
Аудио 1: AC3 5.1, 448 Кбит/сек [Английский — оригинал]
Аудио 2: AC3 5.1, 448 Кбит/сек [Русский — дублированный]
Видео: Идентификатор : 224 (0xE0) Формат : MPEG Video Версия формата : Version 2 Профиль формата : Main@Main Параметр BVOP формата : Да Параметр матрицы формата : Выборочная Параметр GOP формата : Variable Продолжительность : 29 м. Вид битрейта : Переменный Битрейт : 3803 Кбит/сек Максимальный битрейт : 8377 Кбит/сек Ширина : 720 пикселей Высота : 480 пикселей Соотношение сторон : 16:9 Частота кадров : 23,976 кадра/сек Стандарт вещания : NTSC Цветовое пространство : YUV Субдискретизация насыщенности : 4:2:0 Битовая глубина : 8 бит Тип развёртки : Прогрессивная Порядок развёртки : 2:3 Pulldown Метод сжатия : С потерями Бит/(Пиксели*Кадры) : 0.459 Временной код первого кадра : 00:59:31:10 Оригинал временного кода : Group of pictures header GOP, открыто/закрыто : Открыто Размер потока : 812 Мбайт (79%)
Аудио #1: Идентификатор : 189 (0xBD)-128 (0x80) Формат : AC-3 Формат/Информация : Audio Coding 3 Расширение режима : CM (complete main) Параметр Endianness формата : Big Режим смешивания : DVD-Video Продолжительность : 29 м. Вид битрейта : Постоянный Битрейт : 448 Кбит/сек Каналы : 6 каналов Расположение каналов : Front: L C R, Side: L R, LFE Частота : 48,0 КГц Битовая глубина : 16 бит Метод сжатия : С потерями Задержка видео : -460 мс. Размер потока : 95,7 Мбайт (9%)
Аудио #2: Идентификатор : 189 (0xBD)-130 (0x82) Формат : AC-3 Формат/Информация : Audio Coding 3 Расширение режима : CM (complete main) Параметр Endianness формата : Big Режим смешивания : DVD-Video Продолжительность : 29 м. Вид битрейта : Постоянный Битрейт : 448 Кбит/сек Каналы : 6 каналов Расположение каналов : Front: L C R, Side: L R, LFE Частота : 48,0 КГц Битовая глубина : 16 бит Метод сжатия : С потерями Задержка видео : -460 мс. Размер потока : 95,7 Мбайт (9%)

640 kbps avg | ENG
Видео: Идентификатор : 1 Формат : AVC Формат/Информация : Advanced Video Codec Профиль формата : High@L4.1 Параметр CABAC формата : Да Параметр ReFrames формата : 8 кадров Идентификатор кодека : V_MPEG4/ISO/AVC Продолжительность : 2 ч. 10 м. Битрейт : 6167 Кбит/сек Ширина : 1280 пикселей Высота : 582 пикселя Соотношение сторон : 2,2:1 Режим частоты кадров : Постоянный Частота кадров : 23,976 кадра/сек Цветовое пространство : YUV Субдискретизация насыщенности : 4:2:0 Битовая глубина : 8 бит Тип развёртки : Прогрессивная Бит/(Пиксели*Кадры) : 0.345 Размер потока : 5,47 Гбайт (81%) Заголовок : Release by Rensler Библиотека кодирования : x264 core 148 r2597 e86f3a1 Настройки программы : cabac=1 / ref=8 / deblock=1:-3:-3 / analyse=0x3:0x133 / me=umh / subme=11 / psy=1 / psy_rd=0.90:0.15 / mixed_ref=1 / me_range=64 / chroma_me=1 / trellis=2 / 8x8dct=1 / cqm=0 / deadzone=21,11 / fast_pskip=0 / chroma_qp_offset=-3 / threads=3 / lookahead_threads=1 / sliced_threads=0 / nr=0 / decimate=0 / interlaced=0 / bluray_compat=0 / constrained_intra=0 / bframes=12 / b_pyramid=2 / b_adapt=2 / b_bias=0 / direct=3 / weightb=1 / open_gop=0 / weightp=2 / keyint=240 / keyint_min=22 / scenecut=40 / intra_refresh=0 / rc_lookahead=60 / rc=2pass / mbtree=0 / bitrate=6167 / ratetol=1.0 / qcomp=0.70 / qpmin=0 / qpmax=69 / qpstep=4 / cplxblur=20.0 / qblur=0.5 / vbv_maxrate=62500 / vbv_bufsize=50000 / nal_hrd=none / filler=0 / ip_ratio=1.30 / pb_ratio=1.25 / aq=2:1.00 Язык : English Default : Да Forced : Нет
Аудио #1: Идентификатор : 2 Формат : AC-3 Формат/Информация : Audio Coding 3 Расширение режима : CM (complete main) Параметр Endianness формата : Big Идентификатор кодека : A_AC3 Продолжительность : 2 ч. 10 м. Вид битрейта : Постоянный Битрейт : 640 Кбит/сек Каналы : 6 каналов Расположение каналов : Front: L C R, Side: L R, LFE Частота : 48,0 КГц Битовая глубина : 16 бит Метод сжатия : С потерями Размер потока : 595 Мбайт (9%) Заголовок : BD CEE Язык : Russian Default : Да Forced : Нет
Аудио #2: Идентификатор : 3 Формат : AC-3 Формат/Информация : Audio Coding 3 Расширение режима : CM (complete main) Параметр Endianness формата : Big Идентификатор кодека : A_AC3 Продолжительность : 2 ч. 10 м. Вид битрейта : Постоянный Битрейт : 640 Кбит/сек Каналы : 6 каналов Расположение каналов : Front: L C R, Side: L R, LFE Частота : 48,0 КГц Битовая глубина : 16 бит Метод сжатия : С потерями Размер потока : 595 Мбайт (9%) Заголовок : Original Язык : English Default : Нет Forced : Нет

Земля будущего

6167 kbps avg, 0.345 bit/pixel
Аудио#1: 48 kHz/16-bit, AC3 Dolby Digital, 3/2 (L,C,R,l,r) + LFE ch,

6883 Kbps, 0.385 bits/pixel
Звук: Audio #1: Russian, 48.0 KHz, AC3, 6 ch, — AC3 5.1 @ 640 kbps — DUB, Blu-ray Audio #2: Ukrainian, 48.0 KHz, DTS, 6 ch, — DTS 5.1 @ 1536 kbps — DUB, Disney / Buena Vista Audio #3: English, 48.0 KHz, DTS, 6 ch, — DTS 5.1 @ 1536 kbps
Субтитры: Russian (Forced, iTunes), Russian (iTunes), English, English (SDH)

Статьи по теме