Враг Государства скачать торрентом

Уважаемый гость, на данной странице Вам доступен материал по теме: Враг Государства скачать торрентом. Скачивание возможно на компьютер и телефон через торрент, а также сервер загрузок по ссылке ниже. Рекомендуем также другие статьи из категории «Торренты».

Враг Государства скачать торрентом.rar
Закачек 1122
Средняя скорость 8334 Kb/s

Враг Государства скачать торрентом

653 kbps avg, 0.156 bit/pixel
Аудио: 48 kHz, MP3 2.0, 128 kbps
Видео: Идентификатор : 0 Формат : MPEG-4 Visual Профиль формата : Advanced Simple@L5 Параметр BVOP формата : 1 Параметр QPel формата : Нет Параметр GMC формата : Без точки перехода Параметр матрицы формата : Выборочная Идентификатор кодека : XVID Идентификатор кодека/Подсказка : XviD Продолжительность : 2 ч. 11 м. Битрейт : 653 Кбит/сек Ширина : 640 пикселей Высота : 272 пикселя Соотношение сторон : 2,35:1 Частота кадров : 23,976 кадра/сек Цветовое пространство : YUV Субдискретизация насыщенности : 4:2:0 Битовая глубина : 8 бит Тип развёртки : Прогрессивная Метод сжатия : С потерями Бит/(Пиксели*Кадры) : 0.156 Размер потока : 616 Мбайт (83%) Библиотека кодирования : XviD 73
Аудио: Идентификатор : 1 Формат : MPEG Audio Версия формата : Version 1 Профиль формата : Layer 3 Идентификатор кодека : 55 Идентификатор кодека/Подсказка : MP3 Продолжительность : 2 ч. 11 м. Вид битрейта : Постоянный Битрейт : 128 Кбит/сек Каналы : 2 канала Частота : 48,0 КГц Метод сжатия : С потерями Размер потока : 121 Мбайт (16%) Выравнивание : Соединение по промежуткам Продолжительность промежутка : 42 мс. (1,00 видеокадр) Время предзагрузки промежутка : 504 мс. Библиотека кодирования : LAME3.99r Настройки программы : -m s -V 4 -q 2 -lowpass 17 -b 128

192.00 kbps avg(отдельно, http)
Аудио #4: 48 kHz, AC3 Dolby Digital, 3/2 (L,C,R,l,r) + LFE ch,

Враг государства

1805 kbps avg, 0.170 bit/pixel
Аудио: 48 kHz, Dolby Digital AC3 5.1, 448 kbps DUB
Аудио: 48 kHz, Dolby Digital AC3 5.1, 448 kbps MVO
Аудио: 48 kHz, Dolby Digital AC3 5.1, 448 kbps Английский
Субтитры: SoftSub (srt)
Видео: Идентификатор : 1 Формат : AVC Формат/Информация : Advanced Video Codec Профиль формата : High@L4.1 Параметр CABAC формата : Да Параметр ReFrames формата : 8 кадров Идентификатор кодека : V_MPEG4/ISO/AVC Продолжительность : 2 ч. 12 м. Битрейт : 1805 Кбит/сек Ширина : 1024 пикселя Высота : 432 пикселя Соотношение сторон : 2,40:1 Режим частоты кадров : Постоянный Частота кадров : 23,976 кадра/сек Цветовое пространство : YUV Субдискретизация насыщенности : 4:2:0 Битовая глубина : 8 бит Тип развёртки : Прогрессивная Бит/(Пиксели*Кадры) : 0.170 Размер потока : 1,61 Гбайт (55%) Заголовок : Источник BDRemux Библиотека кодирования : x264 core 138 r2356 a1d3d17 Настройки программы : cabac=1 / ref=8 / deblock=1:-3:-2 / analyse=0x3:0x113 / me=umh / subme=10 / psy=1 / psy_rd=1.00:0.05 / mixed_ref=1 / me_range=32 / chroma_me=1 / trellis=2 / 8x8dct=1 / cqm=0 / deadzone=21,11 / fast_pskip=0 / chroma_qp_offset=-3 / threads=6 / lookahead_threads=1 / sliced_threads=0 / nr=0 / decimate=0 / interlaced=0 / bluray_compat=0 / constrained_intra=0 / bframes=8 / b_pyramid=2 / b_adapt=2 / b_bias=0 / direct=3 / weightb=1 / open_gop=0 / weightp=2 / keyint=240 / keyint_min=24 / scenecut=40 / intra_refresh=0 / rc_lookahead=40 / rc=2pass / mbtree=1 / bitrate=1805 / ratetol=1.0 / qcomp=0.60 / qpmin=0 / qpmax=69 / qpstep=4 / cplxblur=20.0 / qblur=0.5 / ip_ratio=1.40 / aq=1:1.00 Язык : English Default : Да Forced : Нет
Аудио #1: Идентификатор : 2 Формат : AC-3 Формат/Информация : Audio Coding 3 Расширение режима : CM (complete main) Параметр Endianness формата : Big Идентификатор кодека : A_AC3 Продолжительность : 2 ч. 12 м. Вид битрейта : Постоянный Битрейт : 448 Кбит/сек Каналы : 6 каналов Расположение каналов : Front: L C R, Side: L R, LFE Частота : 48,0 КГц Битовая глубина : 16 бит Метод сжатия : С потерями Размер потока : 424 Мбайт (14%) Заголовок : Источник BDRemux Dolby Digital 5,1 448 kbps DUB Язык : Russian Default : Да Forced : Нет
Аудио #2: Идентификатор : 3 Формат : AC-3 Формат/Информация : Audio Coding 3 Расширение режима : CM (complete main) Параметр Endianness формата : Big Идентификатор кодека : A_AC3 Продолжительность : 2 ч. 12 м. Вид битрейта : Постоянный Битрейт : 448 Кбит/сек Каналы : 6 каналов Расположение каналов : Front: L C R, Side: L R, LFE Частота : 48,0 КГц Битовая глубина : 16 бит Метод сжатия : С потерями Размер потока : 424 Мбайт (14%) Заголовок : Источник BDRemux Dolby Digital 5,1 448 kbps MVO Язык : Russian Default : Нет Forced : Нет
Аудио #3: Идентификатор : 4 Формат : AC-3 Формат/Информация : Audio Coding 3 Расширение режима : CM (complete main) Параметр Endianness формата : Big Идентификатор кодека : A_AC3 Продолжительность : 2 ч. 12 м. Вид битрейта : Постоянный Битрейт : 448 Кбит/сек Каналы : 6 каналов Расположение каналов : Front: L C R, Side: L R, LFE Частота : 48,0 КГц Битовая глубина : 16 бит Метод сжатия : С потерями Размер потока : 424 Мбайт (14%) Заголовок : Источник BDRemux Dolby Digital 5,1 448 kbps Язык : English Default : Нет Forced : Нет

384.00 kbps avg(отдельно, http)
Аудио #6: 48 kHz, AC3 Dolby Digital, 3/2 (L,C,R,l,r) + LFE ch,

384.00 kbps avg | Многоголосый закадровый |
Субититры: русские форсированные ( по умолчанию), русские, английские, украинские форсированные.
Меню частично анимировано и озвучено
Субтитры: Русские, английские, украинские

640 kbps avg |Одноголосый закадровый, А. Гаврилов|
Аудио#7: Ukrainian: 48 kHz, AC3, 3/2 (L,C,R,l,r) + LFE ch,

Враг государства через торрент

1805 kbps avg, 0.170 bit/pixel
Аудио: Аудио1: 48 kHz, Dolby Digital AC3 5.1, 448 kbps DUB
Аудио2: 48 kHz, Dolby Digital AC3 5.1, 448 kbps MVO
Аудио3: 48 kHz, Dolby Digital AC3 5.1, 448 kbps Английский

384.00 kbps avg | Дублированный, iTunes|
Аудио#2: russian: 48 kHz, AC3, 3/2 (L,C,R,l,r) + LFE ch,

Статьи по теме