Темный Мир Равновесие 2013 скачать

Уважаемый гость, на данной странице Вам доступен материал по теме: Темный Мир Равновесие 2013 скачать. Скачивание возможно на компьютер и телефон через торрент, а также сервер загрузок по ссылке ниже. Рекомендуем также другие статьи из категории «Торренты».

Темный Мир Равновесие 2013 скачать.rar
Закачек 2744
Средняя скорость 2221 Kb/s

Темный Мир Равновесие 2013 скачать

448.00 kbps avg
Субтитры: нет
Видео: Идентификатор : 0 Формат : MPEG-4 Visual Профиль формата : Advanced Simple@L5 Параметр BVOP формата : 1 Параметр QPel формата : Нет Параметр GMC формата : Без точки перехода Параметр матрицы формата : Выборочная Идентификатор кодека : XVID Идентификатор кодека/Подсказка : XviD Продолжительность : 1 ч. 35 м. Битрейт : 1725 Кбит/сек Ширина : 704 пикс. Высота : 384 пикс. Соотношение сторон : 16:9 Частота кадров : 23,976 кадр/сек Цветовое пространство : YUV Подвыборка цветности : 4:2:0 Битовая глубина : 8 бит Тип развёртки : Прогрессивная Метод сжатия : С потерями Бит/(Пиксели*Кадры) : 0.266 Размер потока : 1,15 Гбайт (79%) Библиотека кодирования : XviD 73
Аудио: Идентификатор : 1 Формат : AC-3 Формат/Информация : Audio Coding 3 Расширение режима : CM (complete main) Идентификатор кодека : 2000 Продолжительность : 1 ч. 35 м. Вид битрейта : Постоянный Битрейт : 448 Кбит/сек Каналы : 6 каналов Расположение каналов : Front: L C R, Side: L R, LFE Частота : 48,0 КГц Битовая глубина : 16 бит Метод сжатия : С потерями Размер потока : 306 Мбайт (21%) Выравнивание : Разделение по промежуткам Продолжительность промежутка : 42 мс. (1,00 видеокадр) Время предзагрузки промежутка : 500 ms

1200 Кбит/с, 704×396
Аудио: AAC, 2 ch, 192 Кбит/с
Видео: Идентификатор : 1 Формат : AVC Формат/Информация : Advanced Video Codec Профиль формата : High@L3.0 Параметр CABAC формата : Да Параметр ReFrames формата : 3 кадра Идентификатор кодека : V_MPEG4/ISO/AVC Продолжительность : 50 м. Номинальный битрейт : 1200 Кбит/сек Ширина : 704 пикселя Высота : 396 пикселей Соотношение сторон : 16:9 Режим частоты кадров : Постоянный Частота кадров : 25,000 кадров/сек Цветовое пространство : YUV Субдискретизация насыщенности : 4:2:0 Битовая глубина : 8 бит Тип развёртки : Прогрессивная Бит/(Пиксели*Кадры) : 0.172 Библиотека кодирования : x264 core 125 r2200 999b753 Настройки программы : cabac=1 / ref=3 / deblock=1:0:0 / analyse=0x3:0x113 / me=hex / subme=7 / psy=1 / psy_rd=1.00:0.00 / mixed_ref=1 / me_range=16 / chroma_me=1 / trellis=1 / 8x8dct=1 / cqm=0 / deadzone=21,11 / fast_pskip=1 / chroma_qp_offset=-2 / threads=4 / lookahead_threads=1 / sliced_threads=0 / nr=0 / decimate=1 / interlaced=0 / bluray_compat=0 / constrained_intra=0 / bframes=1 / b_pyramid=0 / b_adapt=1 / b_bias=0 / direct=1 / weightb=1 / open_gop=0 / weightp=2 / keyint=250 / keyint_min=25 / scenecut=40 / intra_refresh=0 / rc=2pass / mbtree=0 / bitrate=1200 / ratetol=1.0 / qcomp=0.60 / qpmin=0 / qpmax=69 / qpstep=4 / cplxblur=20.0 / qblur=0.5 / ip_ratio=1.40 / pb_ratio=1.30 / aq=1:1.00 Язык : Russian Default : Да Forced : Да
Аудио: Идентификатор : 2 Формат : AAC Формат/Информация : Advanced Audio Codec Профиль формата : LC Идентификатор кодека : A_AAC Продолжительность : 50 м. Каналы : 2 канала Расположение каналов : Front: L R Частота : 44,1 КГц Метод сжатия : С потерями Язык : Russian Default : Да Forced : Да

Тёмный мир: Равновесие

1831 kbps avg, 0.178 bit/pixel
Аудио: 48 kHz, Dolby AC3, 6 ch, 448 kbps,русский
Видео: Идентификатор : 1 Формат : AVC Формат/Информация : Advanced Video Codec Профиль формата : High@L4.1 Параметр CABAC формата : Да Параметр ReFrames формата : 8 кадров Идентификатор кодека : V_MPEG4/ISO/AVC Продолжительность : 1 ч. 31 м. Битрейт : 1831 Кбит/сек Ширина : 720 пикселей Высота : 572 пикселя Соотношение сторон : 16:9 Режим частоты кадров : Постоянный Частота кадров : 25,000 кадров/сек Цветовое пространство : YUV Субдискретизация насыщенности : 4:2:0 Битовая глубина : 8 бит Тип развёртки : Прогрессивная Бит/(Пиксели*Кадры) : 0.178 Размер потока : 1,14 Гбайт (78%) Библиотека кодирования : x264 core 138 r2356 a1d3d17 Настройки программы : cabac=1 / ref=8 / deblock=1:-2:-1 / analyse=0x3:0x113 / me=umh / subme=10 / psy=1 / psy_rd=1.00:0.05 / mixed_ref=1 / me_range=32 / chroma_me=1 / trellis=2 / 8x8dct=1 / cqm=0 / deadzone=21,11 / fast_pskip=0 / chroma_qp_offset=-3 / threads=9 / lookahead_threads=1 / sliced_threads=0 / nr=0 / decimate=0 / interlaced=0 / bluray_compat=0 / constrained_intra=0 / bframes=8 / b_pyramid=2 / b_adapt=2 / b_bias=0 / direct=3 / weightb=1 / open_gop=0 / weightp=2 / keyint=250 / keyint_min=25 / scenecut=40 / intra_refresh=0 / rc=2pass / mbtree=0 / bitrate=1831 / ratetol=1.0 / qcomp=0.60 / qpmin=0 / qpmax=69 / qpstep=4 / cplxblur=20.0 / qblur=0.5 / ip_ratio=1.40 / pb_ratio=1.30 / aq=1:1.00 Язык : Russian Default : Да Forced : Нет
Аудио: Идентификатор : 2 Формат : AC-3 Формат/Информация : Audio Coding 3 Расширение режима : CM (complete main) Параметр Endianness формата : Big Идентификатор кодека : A_AC3 Продолжительность : 1 ч. 31 м. Вид битрейта : Постоянный Битрейт : 448 Кбит/сек Каналы : 6 каналов Расположение каналов : Front: L C R, Side: L R, LFE Частота : 48,0 КГц Битовая глубина : 16 бит Метод сжатия : С потерями Размер потока : 293 Мбайт (20%) Язык : Russian Default : Да Forced : Нет

1004 kbps avg, 0.166 bit/pixel
Аудио: 48 kHz, МР3, 2 ch, 128 kbps,русский
Видео: Идентификатор : 0 Формат : MPEG-4 Visual Профиль формата : Advanced Simple@L5 Параметр BVOP формата : 1 Параметр QPel формата : Нет Параметр GMC формата : Без точки перехода Параметр матрицы формата : Выборочная Идентификатор кодека : XVID Идентификатор кодека/Подсказка : XviD Продолжительность : 1 ч. 31 м. Битрейт : 1004 Кбит/сек Ширина : 656 пикселей Высота : 368 пикселей Соотношение сторон : 16:9 Частота кадров : 25,000 кадров/сек Цветовое пространство : YUV Субдискретизация насыщенности : 4:2:0 Битовая глубина : 8 бит Тип развёртки : Прогрессивная Метод сжатия : С потерями Бит/(Пиксели*Кадры) : 0.166 Размер потока : 656 Мбайт (88%) Библиотека кодирования : XviD 73
Аудио: Идентификатор : 1 Формат : MPEG Audio Версия формата : Version 1 Профиль формата : Layer 3 Идентификатор кодека : 55 Идентификатор кодека/Подсказка : MP3 Продолжительность : 1 ч. 31 м. Вид битрейта : Постоянный Битрейт : 128 Кбит/сек Каналы : 2 канала Частота : 48,0 КГц Метод сжатия : С потерями Размер потока : 83,7 Мбайт (11%) Выравнивание : Соединение по промежуткам Продолжительность промежутка : 40 мс. (1,00 видеокадр) Время предзагрузки промежутка : 504 мс.

Статьи по теме