Скачать Мстители 1 через торрент

Уважаемый гость, на данной странице Вам доступен материал по теме: Скачать Мстители 1 через торрент. Скачивание возможно на компьютер и телефон через торрент, а также сервер загрузок по ссылке ниже. Рекомендуем также другие статьи из категории «Торренты».

Скачать Мстители 1 через торрент.rar
Закачек 1598
Средняя скорость 3264 Kb/s

Скачать Мстители 1 через торрент

5858 kbps avg, 0.265 bit/pixel Аудио: 48 kHz/16-bit, AC3 Dolby Digital, 3/2 (L,C,R,l,r) + LFE ch,

5147 kbps / 23,976 fps Аудио: Русский / AC3 / 48 KHz / 640 kbps / 3/2 (L,C,R,l,r) + LFE ch Субтитры: Русские (форс. + полные), Английские |.srt|

Скачать фильм Мстители через торрент в хорошем качестве бесплатно

640 kbps avg | RUS, Blu-ray Субтитры: Русские (форсированные, полные х 2), Английские (форсированные, полные, SDH)

384.00 kbps avg | RUS Субтитры: Русские (полные (2 вида), форсированные), украинские (полные, форсированные), английские (полные, SDH (2 вида), форсированные) [спасибо subsvin2]

2013 kbps avg, 0.29 bit/pixel
Аудио: Аудио #1: 48 kHz, AC3 Dolby Digital, 3/2 (L,C,R,l,r) + LFE ch,

12223 kbps / 23,976 fps
Аудио: Аудио 1: Русский / AC3 / 48 KHz / 640 kbps / 3/2 (L,C,R,l,r) + LFE ch
Аудио 2: Украинский / AC3 / 48 KHz / 640 kbps / 3/2 (L,C,R,l,r) + LFE ch
Аудио 3: Английский / AC3 / 448 KHz / 640 kbps / 3/2 (L,C,R,l,r) + LFE ch

Мстители через торрент

5147 kbps / 23,976 fps
Аудио: Аудио 1: Русский / AC3 / 48 KHz / 640 kbps / 3/2 (L,C,R,l,r) + LFE ch
Аудио 2: Украинский / AC3 / 48 KHz / 640 kbps / 3/2 (L,C,R,l,r) + LFE ch
Аудио 3: Английский / AC3 / 448 KHz / 640 kbps / 3/2 (L,C,R,l,r) + LFE ch

5225.00 kbps avg |Одноголосый закадровый, Ю.Сербин|
Аудио#4: Ukrainian: 48 kHz, AC3, 3/2 (L,C,R,l,r) + LFE ch,

640 kbps avg | RUS, Y.Serbin
Аудио#3: 48 kHz/16-bit, AC3 Dolby Digital, 3/2 (L,C,R,l,r) + LFE ch,

5858 kbps avg, 0.265 bit/pixel
Аудио#1: 48 kHz/16-bit, AC3 Dolby Digital, 3/2 (L,C,R,l,r) + LFE ch,

Скачать Мстители 1 через торрент

640 kbps avg | RUS, Blu-ray
Аудио#2: 48 kHz/16-bit, AC3 Dolby Digital, 3/2 (L,C,R,l,r) + LFE ch,

640 kbps avg | ENG
Видео: Идентификатор : 1 Формат : AVC Формат/Информация : Advanced Video Codec Профиль формата : High@L4.1 Параметр CABAC формата : Да Параметр ReFrames формата : 8 кадров Идентификатор кодека : V_MPEG4/ISO/AVC Продолжительность : 2 ч. 22 м. Битрейт : 5858 Кбит/сек Ширина : 1280 пикселей Высота : 720 пикселей Соотношение сторон : 16:9 Режим частоты кадров : Постоянный Частота кадров : 23,976 кадра/сек Цветовое пространство : YUV Субдискретизация насыщенности : 4:2:0 Битовая глубина : 8 бит Тип развёртки : Прогрессивная Бит/(Пиксели*Кадры) : 0.265 Размер потока : 5,69 Гбайт (73%) Заголовок : Release by Rensler Библиотека кодирования : x264 core 148 r2597 e86f3a1 Настройки программы : cabac=1 / ref=8 / deblock=1:-3:-3 / analyse=0x3:0x113 / me=tesa / subme=11 / psy=1 / psy_rd=1.05:0.00 / mixed_ref=1 / me_range=32 / chroma_me=1 / trellis=2 / 8x8dct=1 / cqm=0 / deadzone=21,11 / fast_pskip=0 / chroma_qp_offset=-2 / threads=3 / lookahead_threads=1 / sliced_threads=0 / nr=0 / decimate=0 / interlaced=0 / bluray_compat=0 / constrained_intra=0 / bframes=12 / b_pyramid=2 / b_adapt=2 / b_bias=0 / direct=3 / weightb=1 / open_gop=0 / weightp=2 / keyint=240 / keyint_min=22 / scenecut=40 / intra_refresh=0 / rc_lookahead=60 / rc=2pass / mbtree=0 / bitrate=5858 / ratetol=1.0 / qcomp=0.80 / qpmin=0 / qpmax=69 / qpstep=4 / cplxblur=20.0 / qblur=0.5 / vbv_maxrate=50000 / vbv_bufsize=62500 / nal_hrd=none / filler=0 / ip_ratio=1.40 / pb_ratio=1.20 / aq=2:0.85 Язык : English Default : Да Forced : Нет
Аудио #1: Идентификатор : 2 Формат : AC-3 Формат/Информация : Audio Coding 3 Расширение режима : CM (complete main) Параметр Endianness формата : Big Идентификатор кодека : A_AC3 Продолжительность : 2 ч. 22 м. Вид битрейта : Постоянный Битрейт : 640 Кбит/сек Каналы : 6 каналов Расположение каналов : Front: L C R, Side: L R, LFE Частота : 48,0 КГц Битовая глубина : 16 бит Метод сжатия : С потерями Размер потока : 654 Мбайт (8%) Заголовок : BD CEE Язык : Russian Default : Да Forced : Нет
Аудио #2: Идентификатор : 3 Формат : AC-3 Формат/Информация : Audio Coding 3 Расширение режима : CM (complete main) Параметр Endianness формата : Big Идентификатор кодека : A_AC3 Продолжительность : 2 ч. 22 м. Вид битрейта : Постоянный Битрейт : 640 Кбит/сек Каналы : 6 каналов Расположение каналов : Front: L C R, Side: L R, LFE Частота : 48,0 КГц Битовая глубина : 16 бит Метод сжатия : С потерями Размер потока : 654 Мбайт (8%) Заголовок : AVO Serbin Язык : Russian Default : Нет Forced : Нет
Аудио #3: Идентификатор : 4 Формат : AC-3 Формат/Информация : Audio Coding 3 Расширение режима : CM (complete main) Параметр Endianness формата : Big Идентификатор кодека : A_AC3 Продолжительность : 2 ч. 22 м. Вид битрейта : Постоянный Битрейт : 640 Кбит/сек Каналы : 6 каналов Расположение каналов : Front: L C R, Side: L R, LFE Частота : 48,0 КГц Битовая глубина : 16 бит Метод сжатия : С потерями Размер потока : 654 Мбайт (8%) Заголовок : Original Язык : English Default : Нет Forced : Нет

Статьи по теме