Скачать Капитан Америка Другая Война через торрент

Уважаемый гость, на данной странице Вам доступен материал по теме: Скачать Капитан Америка Другая Война через торрент. Скачивание возможно на компьютер и телефон через торрент, а также сервер загрузок по ссылке ниже. Рекомендуем также другие статьи из категории «Торренты».

Скачать Капитан Америка Другая Война через торрент.rar
Закачек 3552
Средняя скорость 8394 Kb/s

Скачать Капитан Америка Другая Война через торрент

Сюжет рассказывает о раскрытии заговора, сформировавшегося вокруг ЩИТА капитаном Америкой, который объединил свои усилия с Соколом и Черной вдовой. Также на арене событий появляется убийца по прозвищу «Зимний солдат».

В начале фильма тандем Роджерса и Черной вдовы с ребятами из команды УДАР освобождают корабль ЩИТа, захваченный пиратами. После операции освобождения выясняется, что Вдовой осуществлялись поиски секретных данных. Такое задание ей было дано директором Фьюри. Последний знакомит капитана Роджерса с проектом «Озарение», но он его не одобряет, чем вызывает сомнения и Фьюри.

Первый мститель: Другая война (2014)

Очередная работа братьев-режиссеров Руссо о супергерое из популярных комиксов издательства Marvel, которые столь часто берутся сценаристами и режиссерами за основу картины. Эта кинолента стала сиквелом к картине «Первый мститель». Актерский состав картины почти не изменился: Скралет Йохансон, Крис Эванс, Роберт Рэдфорд, Эмили Вэнкэп снялись в новой ленте.

Далее Фьюри отправляется к Марии Хилл. На пути к ней на него совершается покушение, которое ему удается отбить, сбежав от убийц. Позже наемник все же смертельно ранит Фьюри, но он успевает передать флэшку с документами Стиву, прежде чем умереть в больнице.

640 kbps avg, (Профессиональный, полное дублирование) Аудио2: Английский: 48 kHz, AC3, 6 ch,

4950 kbps avg, 0.302 bit/pixel
Аудио #1: 48 kHz, AC3 Dolby Digital, 3/2 (L,C,R,l,r) + LFE ch,

Первый мститель: Другая война

640 kbps avg, (Оригинал)
Субтитры: Русские (форсированные, полные), Английские (форсированные, полные)

29383 Кбит/сек
Аудио 1: AC3 5.1, 640 Кбит/сек [Русский — дублированный]
Аудио 2: DTS-HD MA 7.1, 4767 Кбит/сек [Английский — оригинал]
Аудио 3: AC3 2.0, 192 Кбит/сек [Английский — комментарий]
Видео: Идентификатор : 1 Формат : AVC Формат/Информация : Advanced Video Codec Профиль формата : High@L4.1 Параметр CABAC формата : Да Параметр ReFrames формата : 4 кадра Идентификатор кодека : V_MPEG4/ISO/AVC Продолжительность : 2 ч. 15 м. Вид битрейта : Переменный Максимальный битрейт : 32,7 Мбит/сек Ширина : 1920 пикселей Высота : 1080 пикселей Соотношение сторон : 16:9 Режим частоты кадров : Постоянный Частота кадров : 23,976 кадра/сек Цветовое пространство : YUV Субдискретизация насыщенности : 4:2:0 Битовая глубина : 8 бит Тип развёртки : Прогрессивная Default : Да Forced : Нет
Аудио #1: Идентификатор : 2 Формат : AC-3 Формат/Информация : Audio Coding 3 Расширение режима : CM (complete main) Параметр Endianness формата : Big Идентификатор кодека : A_AC3 Продолжительность : 2 ч. 15 м. Вид битрейта : Постоянный Битрейт : 640 Кбит/сек Каналы : 6 каналов Расположение каналов : Front: L C R, Side: L R, LFE Частота : 48,0 КГц Битовая глубина : 16 бит Метод сжатия : С потерями Размер потока : 622 Мбайт (2%) Язык : Russian Default : Да Forced : Нет
Аудио #2: Идентификатор : 3 Формат : DTS Формат/Информация : Digital Theater Systems Профиль формата : MA / Core Режим : 16 Параметр Endianness формата : Big Идентификатор кодека : A_DTS Продолжительность : 2 ч. 15 м. Вид битрейта : Переменный Битрейт : Неизвестно / 1509 Кбит/сек Каналы : 8 каналов / 6 каналов Расположение каналов : Front: L C R, Side: L R, Back: L R, LFE / Front: L C R, Side: L R, LFE Частота : 48,0 КГц Битовая глубина : 24 бит Метод сжатия : Без потерь / Lossy Язык : English Default : Нет Forced : Нет
Аудио #3: Идентификатор : 4 Формат : AC-3 Формат/Информация : Audio Coding 3 Расширение режима : CM (complete main) Параметр Endianness формата : Big Идентификатор кодека : A_AC3 Продолжительность : 2 ч. 15 м. Вид битрейта : Постоянный Битрейт : 192 Кбит/сек Каналы : 2 канала Расположение каналов : Front: L R Частота : 48,0 КГц Битовая глубина : 16 бит Метод сжатия : С потерями Размер потока : 187 Мбайт (1%) Язык : English Default : Нет Forced : Нет

Статьи по теме