Самолеты Огонь и Вода торрент

Уважаемый гость, на данной странице Вам доступен материал по теме: Самолеты Огонь и Вода торрент. Скачивание возможно на компьютер и телефон через торрент, а также сервер загрузок по ссылке ниже. Рекомендуем также другие статьи из категории «Торренты».

Самолеты Огонь и Вода торрент.rar
Закачек 636
Средняя скорость 8743 Kb/s

Самолеты Огонь и Вода торрент

448 kbps avg (ENG)
Видео: Идентификатор : 1 Формат : AVC Формат/Информация : Advanced Video Codec Профиль формата : High@L4.1 Параметр CABAC формата : Да Параметр ReFrames формата : 12 кадров Идентификатор кодека : V_MPEG4/ISO/AVC Продолжительность : 1 ч. 23 м. Битрейт : 2382 Кбит/сек Ширина : 1132 пикселя Высота : 474 пикселя Соотношение сторон : 2,40:1 Режим частоты кадров : Постоянный Частота кадров : 23,976 кадра/сек Цветовое пространство : YUV Субдискретизация насыщенности : 4:2:0 Битовая глубина : 8 бит Тип развёртки : Прогрессивная Бит/(Пиксели*Кадры) : 0.185 Размер потока : 1,35 Гбайт (62%) Заголовок : Самолеты: Огонь и вода / Planes: Fire and Rescue (2014) BDRip-AVC by HQCLUB [Elheym] Библиотека кодирования : x264 core 142 r2479kMod dd79a61 Настройки программы : cabac=1 / ref=12 / deblock=1:-3:-2 / analyse=0x3:0x133 / me=umh / subme=11 / psy=1 / fade_compensate=0.00 / psy_rd=1.00:0.00 / mixed_ref=1 / me_range=32 / chroma_me=1 / trellis=2 / 8x8dct=1 / cqm=0 / deadzone=21,11 / fast_pskip=1 / chroma_qp_offset=-4 / threads=4 / lookahead_threads=1 / sliced_threads=0 / nr=0 / decimate=1 / interlaced=0 / bluray_compat=0 / constrained_intra=0 / fgo=0 / bframes=10 / b_pyramid=2 / b_adapt=2 / b_bias=0 / direct=3 / weightb=1 / open_gop=0 / weightp=2 / keyint=230 / keyint_min=23 / scenecut=40 / intra_refresh=0 / rc_lookahead=40 / rc=2pass / mbtree=1 / bitrate=2382 / ratetol=1.0 / qcomp=0.75 / qpmin=0 / qpmax=69 / qpstep=4 / cplxblur=20.0 / qblur=0.5 / vbv_maxrate=50000 / vbv_bufsize=62500 / nal_hrd=none / filler=0 / ip_ratio=1.40 / aq=3:0.90 Язык : English Default : Да Forced : Нет
Аудио #1: Идентификатор : 2 Формат : AC-3 Формат/Информация : Audio Coding 3 Расширение режима : CM (complete main) Параметр Endianness формата : Big Идентификатор кодека : A_AC3 Продолжительность : 1 ч. 23 м. Вид битрейта : Постоянный Битрейт : 448 Кбит/сек Каналы : 6 каналов Расположение каналов : Front: L C R, Side: L R, LFE Частота : 48,0 КГц Битовая глубина : 16 бит Метод сжатия : С потерями Размер потока : 269 Мбайт (12%) Заголовок : АС3 5.1 @ 448 kbps — Dub, BD EUR Язык : Russian Default : Нет Forced : Нет
Аудио #2: Идентификатор : 3 Формат : AC-3 Формат/Информация : Audio Coding 3 Расширение режима : CM (complete main) Параметр Endianness формата : Big Идентификатор кодека : A_AC3 Продолжительность : 1 ч. 23 м. Вид битрейта : Постоянный Битрейт : 448 Кбит/сек Каналы : 6 каналов Расположение каналов : Front: L C R, Side: L R, LFE Частота : 48,0 КГц Битовая глубина : 16 бит Метод сжатия : С потерями Размер потока : 269 Мбайт (12%) Заголовок : АС3 5.1 @ 448 kbps — Dub, BD EUR Язык : Ukrainian Default : Нет Forced : Нет
Аудио #3: Идентификатор : 4 Формат : AC-3 Формат/Информация : Audio Coding 3 Расширение режима : CM (complete main) Параметр Endianness формата : Big Идентификатор кодека : A_AC3 Продолжительность : 1 ч. 23 м. Вид битрейта : Постоянный Битрейт : 448 Кбит/сек Каналы : 6 каналов Расположение каналов : Front: L C R, Side: L R, LFE Частота : 48,0 КГц Битовая глубина : 16 бит Метод сжатия : С потерями Размер потока : 269 Мбайт (12%) Заголовок : АС3 5.1 @ 448 kbps — Original Язык : English Default : Нет Forced : Нет

1710 kbps avg, 0.163 bit/pixel
Аудио #1: 48 kHz, AC3 Dolby Digital, 3/2 (L,C,R,l,r) + LFE ch, 384.00 kbps Constant |Дубляж,
Аудио #2: 48 kHz, AC3 Dolby Digital, 3/2 (L,C,R,l,r) + LFE ch, 384.00 kbps Constant |Оригинал|

Самолеты: Огонь и вода

4391 Kbps, 0.267 bits/pixel
Звук: #1: Russian, 48.0 KHz, AC3, 6 ch, 640 Kbps — |Дубляж, Blu-ray| #2: Ukrainian, 48.0 KHz, DTS, 6 ch, 1510 Kbps — |Дубляж, Уолт Дисней Компани СНГ| #3: English, 48.0 KHz, DTS, 6 ch, 1510 Kbps #4: English, 48.0 KHz, AC3, 2 ch, 320 Kbps — |Deive|
Субтитры: Russian, English, English (SDH), French, Spanish

6.2 Mbps
Аудио: #1 — Русский / AC3 / 48 KHz / 5.1 ch / 640 Kbps (Дубляж — BD)
Субтитры: (SRT)

Статьи по теме