Эволюция Борна 2012 скачать торрент

Уважаемый гость, на данной странице Вам доступен материал по теме: Эволюция Борна 2012 скачать торрент. Скачивание возможно на компьютер и телефон через торрент, а также сервер загрузок по ссылке ниже. Рекомендуем также другие статьи из категории «Торренты».

Эволюция Борна 2012 скачать торрент.rar
Закачек 920
Средняя скорость 8335 Kb/s

Эволюция Борна 2012 скачать торрент

Молодой человек по имени Кеннет Джейм, пройдя подготовку агента, поучает псевдоним Аарон Кросс.

Сюжетная линия идет параллельно событиям фильма «Ультиматум». Проходит информация о том, что одновременно проекту «Тредстоун» шла разработка еще одного проекта ЦРУ – «Аутком». Его отличие заключалось в приеме агентами специальных препаратов, стимулирующих интеллектуальные и физические способности, но если прием таблеток прекратить, агенты деградировали и погибали.

Эволюция Борна (2012)

Вариант спин-офф фильмов о Джейсоне Борне, снятый режиссером Тони Гилроем. Сюжетная композиция построена таким образом, что действие настоящей картины разворачивается параллельно событиям прошлых фильмов. Названием киноленты стало наименование романа о Борне, написанного Эриком Ван Ластбадером, который продолжил серию историй о герое книги Роберта Лэндлэма.

После того, как ЦРУ становится известно, что проект Блэкбрайар раскрыт Борном, Аутком было решено остановить и засекретить, дыбы избежать суда над сотрудниками. Руководит операцией друг Кросса Байер. Аарона пытаются уничтожить, но он спасается. Чтобы избежать дальнейшего преследования, он инсценирует свою гибель.

448.00 kbps avg — Авторский одноголосый (А. Киреев)
Аудио#5: Russian: 48 kHz, AC3, 3/2 (L,C,R,l,r) + LFE ch,

448.00 kbps avg — Авторский одноголосый (Ю. Живов)
Аудио#3: Russian: 48 kHz, AC3, 3/2 (L,C,R,l,r) + LFE ch,

Эволюция Борна

23.976 fps, 1 091 Kbps (0.230 bit/pixel)
Аудио: AC3, 6 ch, 448 Kbps, CBR
Видео: Идентификатор : 0 Формат : MPEG-4 Visual Профиль формата : Advanced Simple@L5 Параметр BVOP формата : 2 Параметр QPel формата : Нет Параметр GMC формата : Без точки перехода Параметр матрицы формата : Выборочная Идентификатор кодека : XVID Идентификатор кодека/Подсказка : XviD Продолжительность : 2 ч. 14 м. Битрейт : 1091 Кбит/сек Ширина : 688 пикселей Высота : 288 пикселей Соотношение сторон : 2,40:1 Частота кадров : 23,976 кадра/сек Цветовое пространство : YUV Субдискретизация насыщенности : 4:2:0 Битовая глубина : 8 бит Тип развёртки : Прогрессивная Метод сжатия : С потерями Бит/(Пиксели*Кадры) : 0.230 Размер потока : 1,03 Гбайт (70%) Библиотека кодирования : XviD 73
Аудио: Идентификатор : 1 Формат : AC-3 Формат/Информация : Audio Coding 3 Расширение режима : CM (complete main) Параметр Endianness формата : Big Идентификатор кодека : 2000 Продолжительность : 2 ч. 14 м. Вид битрейта : Постоянный Битрейт : 448 Кбит/сек Каналы : 6 каналов Расположение каналов : Front: L C R, Side: L R, LFE Частота : 48,0 КГц Битовая глубина : 16 бит Метод сжатия : С потерями Размер потока : 432 Мбайт (29%) Выравнивание : Разделение по промежуткам Продолжительность промежутка : 42 мс. (1,00 видеокадр) Время предзагрузки промежутка : 500 мс.

448.00 kbps avg — Авторский одноголосый (Л. Володарский)
Аудио#4: Russian: 48 kHz, AC3, 3/2 (L,C,R,l,r) + LFE ch,

4789.00 kbps avg |Одноголосый закадровый, А.Дасевич|
Аудио#6: Ukrainian: 48 kHz, AC3, 2/0 (L,R) ch,

4778.00 kbps avg |Одноголосый закадровый, Л.Володарский|
Аудио#4: Russian: 48 kHz/24-bit, DTS-HD MA 7.1,

Эволюция Борна через торрент

6 700 Kbit/s
Аудио: Русский DD 5.1, 448Kbps, (Киреев)
Русский DTS 5.1, 768Kbps, (Дубляж)
Английский DD 5.1, 448Kbps

448.00 kbps avg |Двухголосый закадровый|
Аудио#7: English: 48 kHz/24-bit, DTS-HD MA 7.1,

Статьи по теме